У нас вы можете скачать торрент фильмы, торрент игры, торрент музыку и программы. Заходите и качайте торренты без регистрации!
Популярные торренты
Наш опрос
Что вы качаете чаще всего с торрента?
Игры
Фильмы
Музыку
Сериалы
Программы
Мультфильмы
Разное
Панель управления
Регистрация
Напомнить
Поиск по трекеру


Скачать Бригада (серии 1-15 из 15) (2002) DVDRip-AVC торрент бесплатно


Бригада (серии 1-15 из 15) (2002) DVDRip-AVC


Бригада (серии 1-15 из 15) (2002) DVDRip-AVC

Информация о фильме
Оригинальное название: Бригада
Год выхода: 2002
Режиссер: Алексей Сидоров

В ролях: Сергей Безруков, Владимир Вдовиченков, Дмитрий Дюжев, Павел Майков, Андрей Панин, Екатерина Гусева, Леонид Куравлев, Николай Еременко мл., Александр Белявский, Валентина Теличкина, Алексей Кравченко, Дарья Повереннова, Ян Цапник, Светлана Чуйкина, Алексей Алексеев, Мария Аронова.

О фильме: Это история четырех друзей детства, обычных московских парней, Саши Белого, Космоса, Пчелы и Фила, выросших в одном дворе. Друзья решили немного подзаработать, но незапланированное убийство вмиг перемешало все задуманное, поставив на кон их жизни. Ставка слишком высока, но отступать некуда. Теперь парни прокладывают себе дорогу в криминальном мире и волею судеб превращаются в одну из самых сплоченных и влиятельных группировок…

Бригада (серии 1-15 из 15) (2002) DVDRip-AVC


Автор рипа: Zarraza
Выпущено: Россия
Продолжительность: ~ 00:50:00 *15
Субтитры: нет

Файл:
Формат: AVI
Качество: DVDRip-AVC (источник: DVD-9 / 576p)
Видео: 688x408 (1.68:1), 25 fps, h264 ~2100 kbps avg
Аудио: 48 kHz, AC3 Dolby Digital, 3/2 (L,C,R,l,r) + LFE ch, ~448.00 kbps avg

Бригада (серии 1-15 из 15) (2002) DVDRip-AVC
Бригада (серии 1-15 из 15) (2002) DVDRip-AVC
Бригада (серии 1-15 из 15) (2002) DVDRip-AVC
Бригада (серии 1-15 из 15) (2002) DVDRip-AVC


MInfoФормат: Matroska
Версия формата: Version 2
Размер файла: 944 Мбайт
Продолжительность: 51 м.
Общий поток: 2549 Кбит/сек
Дата кодирования: UTC 2011-10-16 08:10:57
Программа кодирования: mkvmerge v2.9.8 (%27C%27est le bon%27) built on Aug 24 2009 17:34:03
Библиотека кодирования : libebml v0.7.7 + libmatroska v0.8.1

Видео
Идентификатор: 1
Формат: AVC
Формат/Информация: Advanced Video Codec
Профиль формата: [email protected]
Параметр CABAC формата: Да
Параметр ReFrames формата: 6 кадров
Параметр GOP формата: N=1
Идентификатор кодека: V_MPEG4/ISO/AVC

Продолжительность: 51 м.
Битрейт: 2100 Кбит/сек
Ширина: 688 пикселей
Высота: 408 пикселей
Соотношение сторон : 1,686
Частота кадров: 25,000 кадров/сек
Цветовое пространство: YUV
Субдискретизация насыщенности: 4:2:0
Битовая глубина: 8 бит
Тип развёртки: Прогрессивная
Бит/(Пиксели*Кадры): 0.299
Размер потока: 759 Мбайт (80%)
Библиотека кодирования: x264 core 75 r1251kMod e553a4c
Настройки программы: cabac=1 / ref=6 / deblock=1:-1:-1 / analyse=0x3:0x133 / me=umh / subme=7 / psy=1 / psy_rd=1.0:0.0 / mixed_ref=1 / me_range=16 / chroma_me=1 / trellis=2 / 8x8dct=1 / cqm=0 / deadzone=21,11 / chroma_qp_offset=-2 / threads=12 / nr=0 / decimate=1 / mbaff=0 / bframes=3 / b_pyramid=0 / b_adapt=2 / b_bias=0 / direct=1 / wpredb=1 / keyint=250 / keyint_min=25 / scenecut=40 / rc_lookahead=40 / rc=abr / mbtree=1 / bitrate=2100 / ratetol=1.0 / qcomp=0.60 / qpmin=10 / qpmax=51 / qpstep=4 / ip_ratio=1.40 / aq=1:1.00


Аудио
Идентификатор: 2
Формат: AC-3
Формат/Информация: Audio Coding 3
Расширение режима: CM (complete main)
Идентификатор кодека: A_AC3
Продолжительность: 51 м.
Вид битрейта: Постоянный
Битрейт: 448 Кбит/сек
Каналы: 6 каналов
Расположение каналов: Front: L C R, Side: L R, LFE
Частота: 48,0 КГц
Битовая глубина: 16 бит
Метод сжатия : С потерями
Размер потока: 166 Мбайт (18%)

Скачан:  508 раз(а)  Скачать торрент файл

Скачать торрент


(36,52 Kb)
Раздают:   
Качают:   
Размер:
SHA Hash:
Добавить в закладки:
Информация для правообладателей
Как cкачать ←  •  → Как добавить
Список файлов (15)

Еженедельный розыгрыш игр в Вконтакте Покупайте игры дешего

  • Комментировало [1] |
  • Просмотрело: 3932
  •  (голосов: 2)

Вы сюда попали, чтобы скачать торрент Бригада (серии 1-15 из 15) (2002) DVDRip-AVC бесплатно в хорошем качестве HD 720 или 1080! Наш торрент трекер предоставляет только проверенные торрент файлы. Если скачать торрент сериал Бригада (серии 1-15 из 15) (2002) DVDRip-AVC на телефон или планшет, ipad, iphone с системой андроид и iOS не получается - отпишите комментарий, и мы всё быстро исправим!
Подписывайся на новости, заходи в группу!
Комментарии к торренту





  • Гости
    Публикаций: 0
    Комментариев: 0
    Репутация:
  • Elendil пишет:
  • 6 января, 14:38
Бригада по моему лучший отечественный телесериал, который только могли снять. Я помню с каким упоением смотрел каждую новую серию, а потом спешил на улицу чтобы с друзьями обсудить увиденное. Это настоящая и живая история, которую интересно смотреть и сегодня.

Информация
Посетители, находящиеся в группе Гости, не могут оставлять комментарии в данной новости.
Открытый торрент - трекер » Сериалы » Бригада (серии 1-15 из 15) (2002) DVDRip-AVC

Сериалы с торрента


Скачать сериалы с торрента бесплатно и без регистрации


TorrentFX.ru © 2011 - 2016

На нашем торрент - трекере вы найдете много интересных новинок, сможете скачать торрент фильмы, сможете насладиться долгожданными новинками торрент игры, музыки и софта.